Movies Download

Brij Mohan Amar Rahe (2018) Hindi 1080p NF WEB-DL x264 AC3 DD 5.1 Esub Team Jio Exclusive

space                              : YUVChroma subsampling                       : 4:2:0Bit depth                                : 8 bitsScan type                                : ProgressiveBits/(Pixel*Frame)                       : 0.083Stream size                              : 2.90 GiB (81%)Default                                  : YesForced                                   : No Audio #1ID                                       : 2Format                                   : E-AC-3Format/Info                             …

Read more
Movies Download

Make India Great Again by Sorabh Pant (2018) Eng 1080p AMZN WEB-DL H264 x264 DD 2.0 Team Crazy Exclusive

5c65704 AudioID                                       : 2Format                                   : AACFormat/Info                              : Advanced Audio CodecFormat profile                           : LCCodec ID                                 : mp4a-40-2Duration                                 : 1 h 5 minDuration_LastFrame                       : -2 msBit rate mode                            : ConstantBit rate                                 :…

Read more
Movies Download

Grade (2017) Hindi 1080p AMZN WEB-DL H264 AAC DD 2.0 Team Crazy Exclusive

YUVChroma subsampling                       : 4:2:0Bit depth                                : 8 bitsScan type                                : ProgressiveBits/(Pixel*Frame)                       : 0.046Stream size                              : 1.05 GiB (95%)Writing library                          : x264 core 148 r2643 5c65704 AudioID                                       : 2Format                                   : AACFormat/Info                             …

Read more
Movies Download

Super Singh (2017) Punjabi 1080p WEB-DL AVC AAC DD 2.0 Team Jio Exclusive

depth                                : 8 bitsScan type                                : ProgressiveBits/(Pixel*Frame)                       : 0.058Stream size                              : 3.14 GiB (98%)Writing library                          : x264 core 152 r2854 e9a5903 AudioID                                       : 2Format                                   : AACFormat/Info                              : Advanced Audio CodecFormat…

Read more
Movies Download

A Scandall (2016) Hindi 1080p NF WEB-DL AVC AC3 DD 5.1 Esub Team Jio Exclusive

: YUVChroma subsampling                       : 4:2:0Bit depth                                : 8 bitsScan type                                : ProgressiveBits/(Pixel*Frame)                       : 0.135Stream size                              : 5.06 GiB (97%) AudioID                                       : 2Format                                   : E-AC-3Format/Info                              : Enhanced Audio Coding 3Codec ID                                …

Read more

Tags: Tamilrockers Divx Video Song N U Rip lyrics, Tamilrockers Divx Video Song N U Rip free songspk, Tamilrockers Divx Video Song N U Rip download mp3, Tamilrockers Divx Video Song N U Rip video songs, Tamilrockers Divx Video Song N U Rip soundcloud / youtube flv mp4, watch Tamilrockers Divx Video Song N U Rip movie full hd bluray sd mb gb mkv 3gp streaming online 720p 1080p 2018, Tamilrockers Divx Video Song N U Rip Pagalworld 320kbps Starmusiq Playtamil Filmywap TamilRockers Mr Jatt Masstamilan MadrasRockers TamilYogi Jalshamoviez isaidub



Related: