Movies Download

Make India Great Again by Sorabh Pant (2018) Eng 1080p AMZN WEB-DL H264 x264 DD 2.0 Team Crazy Exclusive

Poster

iMDB

Imdb Picture Title: Make India Great Again by Sorabh Pant
Year: 2018
Runtime: 65 minutes
Votes: 11
Rating: 7.8/10
Language: English
Country: India
All Genres: Comedy
Plot Outline: One of India’s top comedians is back. Sorabh Pant understands nothing but wants to change everything. In his 6th stand up special: he goes from trolls to drugs to Aadhar to NaMo to RG to China to US gun laws – and changes nothing. Watch Sorabh try to make India greater than it already isn’t.
Director: Kreeti Gogia
Writing By: Sorabh Pant,
Produced By: Paritosh Katiyar,Vipul Mathur,Riva Mendonca,Harshita Sabnis,Tihany Sengupta,Parag Srivastava,
Cast:
Sorabh Pant as Himself

Details

Name:Make India Great Again by Sorabh Pant (2018) Eng 1080p AMZN WEB-DL H264 x264 DD 2.0 Team Jio Exclusive
Description:

Make India Great Again by Sorabh Pant (2018) Eng 1080p AMZN WEB-DL H264 x264 DD 2.0 Team Jio Exclusive

Source :- Team Jio
Format                                   : MPEG-4
Format profile                           : Base Media
Codec ID                                 : isom (isom/iso2/avc1/mp41)
File size                                : 1.11 GiB
Duration                                 : 1 h 5 min
Overall bit rate                         : 2 429 kb/s
Writing application                      : Lavf58.12.100

Video
ID                                       : 1
Format                                   : AVC
Format/Info                              : Advanced Video Codec
Format profile                           : [email protected]
Format settings                          : CABAC / 4 Ref Frames
Format settings, CABAC                   : Yes
Format settings, ReFrames                : 4 frames
Codec ID                                 : avc1
Codec ID/Info                            : Advanced Video Coding
Duration                                 : 1 h 5 min
Bit rate                                 : 2 300 kb/s
Width                                    : 1 920 pixels
Height                                   : 1 080 pixels
Display aspect ratio                     : 16:9
Frame rate mode                          : Constant
Frame rate                               : 25.000 FPS
Color space                              : YUV
Chroma subsampling                       : 4:2:0
Bit depth                                : 8 bits
Scan type                                : Progressive
Bits/(Pixel*Frame)                       : 0.044
Stream size                              : 1.05 GiB (94%)
Writing library                          : x264 core 148 r2643 5c65704

Audio
ID                                       : 2
Format                                   : AAC
Format/Info                              : Advanced Audio Codec
Format profile                           : LC
Codec ID                                 : mp4a-40-2
Duration                                 : 1 h 5 min
Duration_LastFrame                       : -2 ms
Bit rate mode                            : Constant
Bit rate                                 : 128 kb/s
Channel(s)                               : 2 channels
Channel(s)_Original                      : 1 channel
Channel positions                        : Front: C
Sampling rate                            : 44.1 kHz
Frame rate                               : 43.066 FPS (1024 SPF)
Compression mode                         : Lossy
Stream size                              : 59.8 MiB (5%)
Title                                    : Track1
Default                                  : Yes
Alternate group                          : 1

  q8wHh.th.png q8XKr.th.png q8VXW.th.png q8jLj.th.png q8CUH.th.png q8lRo.th.png
Category:TV > WEB-HD
Lang:Hindi
Total Size:1.11 GB

|| Download This Tv Show Via Single Resumable Links Size: 1.11 GB ||

Direct-1 Google Drive | Direct-2 | Direct-3 |

Watch Online Click Here

Incoming search terms: