Movies Download

Game of Thrones S01E02 720p x264 BluRay Dual Audio [English + Hindi] Esub 525MB [Crazzyboy]

Poster

67dd14477357e41d7af626878e17ab79.jpg
iMDB

Imdb Picture Title: “Game of Thrones” The Kingsroad
Year: 2011
Runtime: 56 minutes
Votes: 19599
Rating: 8.8/10
Language: English
Country: USA, Ireland, UK
All Genres: Action, Adventure, Drama, Fantasy, Romance
Plot Outline: Although his son Bran is lying in bed unconscious from his fall, Ned Stark must return with King Robert to King’s Landing. His wife Catelyn stays behind in Winterfell, though there appears to be little hope of Bran’s recovery. The King has agreed that his son Joffrey and Ned’s daughter Sansa should marry, uniting their families forever. Problems arise when Joffrey challenges the butcher’s boy who is out playing with Sansa’s younger sister Arya. Joffrey is injured when Arya’s pet wolf attacks him. The King’s justice is swift but fair even if his wife Cersei doesn’t agree. Meanwhile, Ned illegitimate son heads north to join the Night Watch. Across the Narrow Sea, Daenerys is having some difficulty accommodating herself to married life. She turns to one of her servants, a slave whose job it once was to pleasure men, to learn how she could make her husband happy. Written by garykmcd
Director: Timothy Van Patten
Writing By: David Benioff,D.B. Weiss,George R.R. Martin,David Benioff,D.B. Weiss,
Produced By: David Benioff,Jonathan Brytus,Guymon Casady,Frank Doelger,Jim Duggan,Vince Gerardis,Mark Huffam,George R.R. Martin,Christopher Newman,Greg Spence,Carolyn Strauss,Guy Tannahill,Ralph Vicinanza,D.B. Weiss,
Music: Ramin Djawadi
Cast:
Sean Bean as Eddard ‘Ned’ Stark
Mark Addy as Robert Baratheon
Nikolaj Coster-Waldau as Jaime Lannister
Michelle Fairley as Catelyn Stark
Lena Headey as Cersei Lannister
Emilia Clarke as Daenerys Targaryen
Iain Glen as Jorah Mormont
Harry Lloyd as Viserys Targaryen
Kit Harington as Jon Snow
Sophie Turner as Sansa Stark

Details

Name:Game of Thrones S01E02 720p BluRay x264 AC3 ESub Dual Audio [Hindi + English] 525MB[CraZzyBoY]]
Description:

Game of Thrones S01E02 720p x264 BluRay Dual Audio [English + Hindi] Esub 525MB [Crazzyboy]


767be39ac9e5a7c0bcde7d39a46254fe.jpg
 General

Format                      : Matroska
Format version              : Version 4 / Version 2
File size                   : 526 MiB
Duration                    : 55 min 17 s
Overall bit rate            : 1 329 kb/s
Encoded date                : UTC 2018-06-16 19:18:14
Writing application         : mkvmerge v20.0.0 (‘I Am The Sun’) 64-bit
Writing library             : libebml v1.3.5 + libmatroska v1.4.8

Video
ID                          : 2
Format                      : AVC
Format/Info                 : Advanced Video Codec
Format profile              : [email protected]
Format settings             : CABAC / 5 Ref Frames
Format settings, CABAC      : Yes
Format settings, ReFrames   : 5 frames
Codec ID                    : V_MPEG4/ISO/AVC
Duration                    : 55 min 17 s
Bit rate                    : 1 071 kb/s
Width                       : 1 280 pixels
Height                      : 720 pixels
Display aspect ratio        : 16:9
Frame rate mode             : Constant
Frame rate                  : 23.976 (24000/1001) FPS
Color space                 : YUV
Chroma subsampling          : 4:2:0
Bit depth                   : 8 bits
Scan type                   : Progressive
Bits/(Pixel*Frame)          : 0.048
Stream size                 : 424 MiB (81%)
Writing library             : x264 core 133 r2334 a3ac64b
Language                    : English
Default                     : Yes
Forced                      : No

Audio #1
ID                          : 1
Format                      : AC-3
Format/Info                 : Audio Coding 3
Codec ID                    : A_AC3
Duration                    : 55 min 17 s
Bit rate mode               : Constant
Bit rate                    : 192 kb/s
Channel(s)                  : 6 channels
Channel positions           : Front: L C R, Side: L R, LFE
Sampling rate               : 48.0 kHz
Frame rate                  : 31.250 FPS (1536 SPF)
Bit depth                   : 16 bits
Compression mode            : Lossy
Delay relative to video     : 10 ms
Stream size                 : 75.9 MiB (14%)
Language                    : Hindi
Service kind                : Complete Main
Default                     : Yes
Forced                      : No

Audio #2

Format                      : AAC
Format/Info                 : Advanced Audio Codec
Format profile              : HE-AAC / LC
Format settings             : Explicit
Codec ID                    : A_AAC-2
Duration                    : 55 min 17 s
Bit rate                    : 64.0 kb/s
Channel(s)                  : 2 channels
Channel positions           : Front: L R
Sampling rate               : 48.0 kHz / 24.0 kHz
Frame rate                  : 23.438 FPS (1024 SPF)
Compression mode            : Lossy
Delay relative to video     : 31 ms
Stream size                 : 25.3 MiB (5%)
Language                    : English
Default                     : No
Forced                      : No

Text
ID                          : 4
Format                      : UTF-8
Codec ID                    : S_TEXT/UTF8
Codec ID/Info               : UTF-8 Plain Text
Duration                    : 53 min 23 s
Bit rate                    : 51 b/s
Count of elements           : 625
Stream size                 : 20.0 KiB (0%)
Language                    : English
Default                     : Yes
Forced                      : No 

 
 
 
 
 
 

Category:TV > WEB-HD
Lang:Hindi
Total Size:525.76 MB

|| Download This Tv Show Via Single Resumable Links Size: 584 MB ||

Direct-1 Google Drive | Direct-2 | Direct-3 |

Watch Online Click Here

Incoming search terms: