Movies Download

Brij Mohan Amar Rahe (2018) Hindi 480p NF WEB-DL x264 AC3 DD 5.1 Esub Team Jio Exclusive

Poster

3c4d4201bc53d6aed86cf4987c570ed6.jpg
iMDB

Imdb Picture Original Title: Brij Mohan Amar Rahe
Title: Long Live Brij Mohan
Year: 2018
Language: Hindi
Country: India
All Genres: Comedy, Crime, Drama
Plot Outline: Brij Mohan (36), a hosiery shop owner in a busy Delhi market, desperately wants to change his life. He is fed up of his ball-crusher wife and mounting debts. In order to escape his wretched life, he changes his appearance and adopts a new identity as Amar Sethi, but ends up committing a botched up murder. He runs off with his young girlfriend, hopeful of making a new beginning. Instead, as luck would have it, he finds himself trapped in a web of his own Karma.
Tagline: Karma is a B*tch
Director: Nikhil Bhat
Writing By: Nikhil Bhat,Nikhil Bhat,Nikhil Bhat,Kuldeep Ruhil,Gaurav Sharma,Gaurav Sharma,
Produced By: Hemant Kumar Dixit,Raghav Gupta,Siddharth Anand Kumar,Shoaib Lokhandwala,Vikram Mehra,Kalindar Mulani,Gaurav Sharma,Sahil Sharma,
Music: Andrew T. Mackay
Cast:
Arjun Mathur as Brij Mohan
Nidhi Singh as Sweety
Sheetal Thakur as Simi
Manav Vij as Beniwal
Vijayant Kohli as Suri
Sunny Hinduja as Raghu
Yogendra Tikku as Sinha
Rajendra Bhatia as Doctor
Lokesh Mittal as Lawer
Goswami Lalit as Constable

Details

Name:Brij Mohan Amar Rahe (2018) Hindi 480p NF WEB-DL x264 AAC DD 5.1 Esub Team Jio Exclusive
Description:

Brij Mohan Amar Rahe (2018) Hindi 480p NF WEB-DL x264 AAC DD 5.1 Esub Team Jio Exclusive

f2925405e237d7bb895362c0a4d35867.jpg

Format                                   : Matroska
Format version                           : Version 4 / Version 2
File size                                : 1.03 GiB
Duration                                 : 1 h 40 min
Overall bit rate                         : 1 472 kb/s
Movie name                               : JioTorrents.net
Encoded date                             : UTC 2018-08-03 08:24:11
Writing application                      : mkvmerge v22.0.0 (‘At The End Of The World’) 64-bit
Writing library                          : libebml v1.3.5 + libmatroska v1.4.8

Video
ID                                       : 3
Format                                   : AVC
Format/Info                              : Advanced Video Codec
Format profile                           : [email protected]
Format settings                          : CABAC / 3 Ref Frames
Format settings, CABAC                   : Yes
Format settings, ReFrames                : 3 frames
Codec ID                                 : V_MPEG4/ISO/AVC
Duration                                 : 1 h 40 min
Bit rate                                 : 702 kb/s
Width                                    : 720 pixels
Height                                   : 480 pixels
Display aspect ratio                     : 16:9
Frame rate mode                          : Constant
Frame rate                               : 24.000 FPS
Color space                              : YUV
Chroma subsampling                       : 4:2:0
Bit depth                                : 8 bits
Scan type                                : Progressive
Bits/(Pixel*Frame)                       : 0.085
Stream size                              : 502 MiB (48%)
Default                                  : Yes
Forced                                   : No

Audio #1
ID                                       : 1
Format                                   : AC-3
Format/Info                              : Audio Coding 3
Codec ID                                 : A_AC3
Duration                                 : 1 h 40 min
Bit rate mode                            : Constant
Bit rate                                 : 384 kb/s
Channel(s)                               : 6 channels
Channel positions                        : Front: L C R, Side: L R, LFE
Sampling rate                            : 48.0 kHz
Frame rate                               : 31.250 FPS (1536 SPF)
Bit depth                                : 16 bits
Compression mode                         : Lossy
Stream size                              : 275 MiB (26%)
Title                                    : Hindi Audio
Language                                 : Hindi
Service kind                             : Complete Main
Default                                  : Yes
Forced                                   : No

Audio #2
ID                                       : 2
Format                                   : AC-3
Format/Info                              : Audio Coding 3
Codec ID                                 : A_AC3
Duration                                 : 1 h 40 min
Bit rate mode                            : Constant
Bit rate                                 : 384 kb/s
Channel(s)                               : 6 channels
Channel positions                        : Front: L C R, Side: L R, LFE
Sampling rate                            : 48.0 kHz
Frame rate                               : 31.250 FPS (1536 SPF)
Bit depth                                : 16 bits
Compression mode                         : Lossy
Stream size                              : 275 MiB (26%)
Title                                    : Audio Description
Language                                 : Hindi
Service kind                             : Complete Main
Default                                  : No
Forced                                   : No

Text
ID                                       : 4
Format                                   : UTF-8
Codec ID                                 : S_TEXT/UTF8
Codec ID/Info                            : UTF-8 Plain Text
Duration                                 : 1 h 35 min
Bit rate                                 : 57 b/s
Count of elements                        : 996
Stream size                              : 40.1 KiB (0%)
Language                                 : English
Default                                  : Yes
Forced                                   : No

q7gt9.th.png q7kJt.th.png q7OTd.th.png q7uk8.th.png q786J.th.png q7fsD.th.png

Category:Movies > WEB-HD
Lang:Hindi
Total Size:1.03 GB
Esub

|| Download This Movie Via Single Resumable Links Size: 1.03 GB ||

Direct-1 Google Drive | Direct-2 | Direct-3 |

Watch Online Click Here

Incoming search terms: