Movies Download

Bbuddah… Hoga Terra Baap (2011) Hindi 720p BluRay mHD x264 AC3 DD 5.1 -NhaNc3

Poster

d836b7818afc77a6a2cd6fb232cf9170.jpg
iMDB

Imdb Picture Title: Bbuddah… Hoga Terra Baap
Year: 2011
Runtime: 114 minutes
Votes: 2419
Rating: 5.6/10
Language: Hindi, English
Country: India
All Genres: Action, Crime, Drama, Thriller
Plot Outline: After a series of bomb blasts in Mumbai, ACP Karan Malhotra announces that he will bring in the culprits responsible within a very short period of time as well attempts to convince his college sweetheart, Tanya P. Nath, to marry him. He then sets about interrogating several suspects so much so that an underworld gangster, Kabir, is compelled to hire an assassin to do away with him. The potential killer, Viju, is an uptight older ex-convict as well as a former gangster, who now runs a pub in Paris, and is willing to kill Karan. As he sets about this gruesome task, he comes across an old flame, Kamini, as well as his estranged wife, Sita – and it is these encounters that may well be the turning point in this life that may convince him to leave the bombs and Bandooks behind and spend the rest of his life praying and watching the Bhakti Channel. Written by rAjOo ([email protected])
Director: Puri Jagannadh
Writing By: Inaamulhaq,Puri Jagannadh,Ajay Kumar,
Produced By: Amitabh Bachchan,Puri Jagannadh,Vikram Malhotra,Neeraj Sharma,
Music: Vishal Dadlani Shekhar Ravjiani Anoop Rubens
Cast:
Amitabh Bachchan as Vijju ‘Bbuddah’
Hema Malini as Sita Malhotra
Sonu Sood as ACP Karan Malhotra
Sonal Chauhan as Tanya P. Nath
Charmy Kaur as Amrita
Prakash Raj as Kabir
Makrand Deshpande as Mac
Subbaraju as
Shawar Ali as Anju
Rajeev Verma as Mirchi Baba

Details

Name:Bbuddah… Hoga Terra Baap (2011) Hindi 720p BluRay mHD x264 AC3 DD 5.1 -NhaNc3
Description:

Bbuddah… Hoga Terra Baap (2011) Hindi 720p BluRay mHD x264 AC3 DD 5.1 -NhaNc3 


d836b7818afc77a6a2cd6fb232cf9170.jpg


Format                                   : Matroska
Format version                           : Version 2
File size                                : 2.35 GiB
Duration                                 : 1 h 57 min
Overall bit rate                         : 2 855 kb/s
Encoded date                             : UTC 2011-09-09 08:28:10
Writing application                      : mkvmerge v4.9.1 (‘Ich will’) built on Jul 11 2011 23:53:15
Writing library                          : libebml v1.2.1 + libmatroska v1.1.1

Video
ID                                       : 1
Format                                   : AVC
Format/Info                              : Advanced Video Codec
Format profile                           : [email protected]
Format settings                          : CABAC / 5 Ref Frames
Format settings, CABAC                   : Yes
Format settings, ReFrames                : 5 frames
Codec ID                                 : V_MPEG4/ISO/AVC
Duration                                 : 1 h 57 min
Bit rate                                 : 2 459 kb/s
Width                                    : 1 280 pixels
Height                                   : 532 pixels
Display aspect ratio                     : 2.40:1
Frame rate mode                          : Constant
Frame rate                               : 23.976 FPS
Color space                              : YUV
Chroma subsampling                       : 4:2:0
Bit depth                                : 8 bits
Scan type                                : Progressive
Bits/(Pixel*Frame)                       : 0.151
Stream size                              : 1.99 GiB (85%)
Writing library                          : x264 core 116 r2044 392e762
Language                                 : English
Default                                  : Yes
Forced                                   : No
Color range                              : Limited
Color primaries                          : BT.709
Transfer characteristics                 : BT.709
Matrix coefficients                      : BT.709

Audio
ID                                       : 2
Format                                   : AC-3
Format/Info                              : Audio Coding 3
Codec ID                                 : A_AC3
Duration                                 : 1 h 57 min
Bit rate mode                            : Constant
Bit rate                                 : 384 kb/s
Channel(s)                               : 6 channels
Channel positions                        : Front: L C R, Side: L R, LFE
Sampling rate                            : 48.0 kHz
Frame rate                               : 31.250 FPS (1536 SPF)
Bit depth                                : 16 bits
Compression mode                         : Lossy
Stream size                              : 324 MiB (13%)
Language                                 : English
Service kind                             : Complete Main
Default                                  : Yes
Forced                                   : Yes

Text #1
ID                                       : 3
Format                                   : VobSub
Codec ID                                 : S_VOBSUB
Codec ID/Info                            : Picture based subtitle format used on DVDs
Title                                    : KaMaL DDR
Language                                 : English
Default                                  : Yes
Forced                                   : No

Text #2
ID                                       : 4
Format                                   : VobSub
Muxing mode                              : zlib
Codec ID                                 : S_VOBSUB
Codec ID/Info                            : Picture based subtitle format used on DVDs
Title                                    : KaMaL DDR
Language                                 : Arabic
Default                                  : No
Forced                                   : No



e070f87438eb0e008f7cad531adcbed8.jpg

Category:Movies > Bollywood
Lang:Hindi
Total Size:2.35 GB

|| Download This Movie Via Single Resumable Links Size: 2.35 GB ||

Direct-1 Google Drive | Direct-2 | Direct-3 |

Watch Online Click Here

Incoming search terms: