Movies Download

Avengers: Infinity War (2018) BluRay 720p x264 M.Audio] [Hindi(Cleaned) + English] 1.6GB

Poster

76207d4b5d88cc635455ff109bf5247c.jpg
iMDB

Imdb Picture Title: Avengers: Infinity War
Year: 2018
Language: English
Country: USA
All Genres: Action, Adventure, Fantasy, Sci-Fi
Plot Outline: The plot is unknown at this time.
Director: Anthony Russo
Joe Russo
Writing By: Jack Kirby,Christopher Markus,Stephen McFeely,Jim Starlin,
Produced By: Victoria Alonso,Mitchell Bell,Ari Costa,Louis D’Esposito,Jon Favreau,Kevin Feige,Michael Grillo,James Gunn,Stan Lee,
Music: Alan Silvestri
Plot:

The plot is unknown at this time.

Cast:
Tom Holland as Peter Parker / Spider-Man
Karen Gillan as Nebula
Scarlett Johansson as Natasha Romanoff / Black Widow
Brie Larson as Carol Danvers / Captain Marvel
Robert Downey Jr. as Tony Stark / Iron Man
Elizabeth Olsen as Wanda Maximoff / Scarlet Witch
Chris Pratt as Peter Quill / Star-Lord
Chris Evans as Steve Rogers / Captain America
Cobie Smulders as Maria Hill
Benedict Cumberbatch as Dr. Stephen Strange
Trailers:
First-Look Featurette

Details

Name:Avengers: Infinity War (2018) BluRay 720p x264 M.Audio] [Hindi(Cleaned) + English] 1.6GB
Description:

Avengers: Infinity War (2018) BluRay 720p x264 M.Audio] [Hindi(Cleaned) + English] 1.6GB
 851ef8b36299c24b6738d16e091d18f5.jpg

General Format                                   : Matroska
Format version                           : Version 4 / Version 2
File size                                : 1.64 GiB
Duration                                 : 2 h 29 min
Overall bit rate                         : 1 574 kb/s


Video
ID                                       : 1
Format                                   : AVC
Format/Info                              : Advanced Video Codec
Format profile                           : [email protected]
Format settings                          : CABAC / 4 Ref Frames
Format settings, CABAC                   : Yes
Format settings, RefFrames               : 4 frames
Codec ID                                 : V_MPEG4/ISO/AVC
Duration                                 : 2 h 29 min
Bit rate                                 : 1 050 kb/s
Width                                    : 1 280 pixels
Height                                   : 534 pixels
Display aspect ratio                     : 2.40:1
Original display aspect ratio            : 2.40:1
Frame rate mode                          : Constant
Frame rate                               : 23.976 (24000/1001) FPS
Color space                              : YUV
Chroma subsampling                       : 4:2:0
Bit depth                                : 8 bits
Scan type                                : Progressive
Bits/(Pixel*Frame)                       : 0.064
Stream size                              : 1.10 GiB (63%)
Writing library                          : x264 core 155
Default                                  : Yes
Forced                                   : No

Audio #1
ID                                       : 2
Format                                   : MPEG Audio
Format version                           : Version 1
Format profile                           : Layer 3
Format settings                          : Joint stereo / MS Stereo
Codec ID                                 : A_MPEG/L3
Codec ID/Hint                            : MP3
Duration                                 : 2 h 29 min
Bit rate mode                            : Constant
Bit rate                                 : 128 kb/s
Channel(s)                               : 2 channels
Sampling rate                            : 48.0 kHz
Frame rate                               : 41.667 FPS (1152 SPF)
Compression mode                         : Lossy
Stream size                              : 137 MiB (8%)
Writing library                          : LAME3.99r
Encoding settings                        : -m j -V 4 -q 3 -lowpass 17 -b 128
Language                                 : Tamil
Default                                  : No
Forced                                   : No

Audio #2
ID                                       : 3
Format                                   : MPEG Audio
Format version                           : Version 1
Format profile                           : Layer 3
Format settings                          : Joint stereo / MS Stereo
Codec ID                                 : A_MPEG/L3
Codec ID/Hint                            : MP3
Duration                                 : 2 h 29 min
Bit rate mode                            : Constant
Bit rate                                 : 128 kb/s
Channel(s)                               : 2 channels
Sampling rate                            : 48.0 kHz
Frame rate                               : 41.667 FPS (1152 SPF)
Compression mode                         : Lossy
Stream size                              : 137 MiB (8%)
Writing library                          : LAME3.99r
Encoding settings                        : -m j -V 4 -q 3 -lowpass 17 -b 128
Language                                 : Telugu
Default                                  : No
Forced                                   : No

Audio #3
ID                                       : 4
Format                                   : MPEG Audio
Format version                           : Version 1
Format profile                           : Layer 3
Format settings                          : Joint stereo / MS Stereo
Codec ID                                 : A_MPEG/L3
Codec ID/Hint                            : MP3
Duration                                 : 2 h 29 min
Bit rate mode                            : Constant
Bit rate                                 : 128 kb/s
Channel(s)                               : 2 channels
Sampling rate                            : 48.0 kHz
Frame rate                               : 41.667 FPS (1152 SPF)
Compression mode                         : Lossy
Stream size                              : 137 MiB (8%)
Writing library                          : LAME3.99r
Encoding settings                        : -m j -V 4 -q 3 -lowpass 17 -b 128
Language                                 : Hindi
Default                                  : Yes
Forced                                   : Yes

Audio #4
ID                                       : 5

Format                                   : MPEG Audio
Format version                           : Version 1
Format profile                           : Layer 3
Format settings                          : Joint stereo / MS Stereo
Codec ID                                 : A_MPEG/L3
Codec ID/Hint                            : MP3
Duration                                 : 2 h 29 min
Bit rate mode                            : Constant
Bit rate                                 : 128 kb/s
Channel(s)                               : 2 channels
Sampling rate                            : 48.0 kHz
Frame rate                               : 41.667 FPS (1152 SPF)
Compression mode                         : Lossy
Stream size                              : 137 MiB (8%)
Writing library                          : LAME3.99r
Encoding settings                        : -m j -V 4 -q 3 -lowpass 17 -b 128 

 Stream size                              : 137 MiB (13%)
Language                                 : English
Default                                  : No
Forced                                   : No

Text
ID                                       : 6
Format                                   : UTF-8
Codec ID                                 : S_TEXT/UTF8
Codec ID/Info                            : UTF-8 Plain Text
Duration                                 : 2 h 28 min
Bit rate                                 : 42 b/s
Count of elements                        : 1724
Stream size                              : 46.5 KiB (0%)
Language                                 : English
Default                                  : No
Forced                                   : No 

05QcK.th.png 05Z3s.th.png 05PBV.th.png 0577c.th.png 05zyM.th.png 05Uqz.th.png 05xW3.th.png

Category:Movies > Hollywood Dub
Lang:Hindi
Total Size:1.64 GB

|| Download This Movie Via Single Resumable Links Size: 1.64 GB ||

Direct-1 Google Drive | Direct-2 | Direct-3 |

Watch Online Click Here

Incoming search terms: