Movies Download

A Scandall (2016) Hindi 1080p NF WEB-DL AVC AC3 DD 5.1 Esub Team Jio Exclusive

Poster

iMDB

Imdb Picture Title: A Scandall
Year: 2016
Runtime: 112 minutes
Votes: 65
Rating: 4.4/10
Language: Hindi
Country: India
All Genres: Thriller
Plot Outline: Kuhu, a 9 year old girl, drowns in a lake in Nainital. Soon after, her father, Manav falls off a cliff but lives on to lead a strange life of hallucinations and complete metamorphosis. …
Tagline: A lie has no legs but scandal has devil’s wings
Director: Ishaan Trivedi
Writing By: Ishaan Trivedi,
Produced By: Johnny Baweja,Abdul Karim Borkar,Reeth Mazumder,
Music: Bapi-Tutul Ikka-Arko Amjad Nadeem
Plot:

Kuhu, a 9 year old girl, drowns in a lake in Nainital. Soon after, her father, Manav falls off a cliff but lives on to lead a strange life of hallucinations and complete metamorphosis. Manav now sees his dead daughter. When Vidhu, a film school pass out, hears this story from his girlfriend Koya, he finds it interesting enough to turn it into a film. A small crew of four set out for Nainital, hoping to film paranormal activities going around Kuhu’s family. Very little they know that their exploits will lead them into a quagmire of incest, sex and an unsolved murder mystery.

Written by Ishaan Trivedi
Cast:
Johnny Baweja as Vidhu
Reeth Mazumder as Koya
Manav Kaul as Manav
Puru Chibber as Prabal
Tanvi Vyas as Asmi
Vasundhara Kaul as Ashu
Aayam Mehta as Psychic
Niraj Sah as Psychiatrist

Details

Name:A Scandall (2016) Hindi 1080p NF WEB-DL AVC AC3 DD 5.1 Esub Team Jio Exclusive
Description:

A Scandall (2016) Hindi 1080p NF WEB-DL AVC AC3 DD 5.1 Esub Team Jio Exclusive

Format                                   : MPEG-4
Format profile                           : Base Media
Codec ID                                 : isom (isom/iso2/avc1/mp41)
File size                                : 5.21 GiB
Duration                                 : 1 h 48 min
Overall bit rate                         : 6 907 kb/s
Writing application                      : Lavf58.12.100

Video
ID                                       : 1
Format                                   : AVC
Format/Info                              : Advanced Video Codec
Format profile                           : [email protected]
Format settings                          : CABAC / 3 Ref Frames
Format settings, CABAC                   : Yes
Format settings, ReFrames                : 3 frames
Codec ID                                 : avc1
Codec ID/Info                            : Advanced Video Coding
Duration                                 : 1 h 48 min
Bit rate                                 : 6 707 kb/s
Width                                    : 1 920 pixels
Height                                   : 1 080 pixels
Display aspect ratio                     : 16:9
Frame rate mode                          : Constant
Frame rate                               : 24.000 FPS
Color space                              : YUV
Chroma subsampling                       : 4:2:0
Bit depth                                : 8 bits
Scan type                                : Progressive
Bits/(Pixel*Frame)                       : 0.135
Stream size                              : 5.06 GiB (97%)

Audio
ID                                       : 2
Format                                   : E-AC-3
Format/Info                              : Enhanced Audio Coding 3
Codec ID                                 : ec-3
Duration                                 : 1 h 48 min
Bit rate mode                            : Constant
Bit rate                                 : 192 kb/s
Channel(s)                               : 6 channels
Channel positions                        : Front: L C R, Side: L R, LFE
Sampling rate                            : 48.0 kHz
Frame rate                               : 187.500 FPS (256 SPF)
Bit depth                                : 16 bits
Compression mode                         : Lossy
Stream size                              : 148 MiB (3%)
Service kind                             : Complete Main
Default                                  : Yes
Alternate group                          : 1

6dc9db331d09db985cdbc41c887fa770.th.png 05d89c633a9ee0d09a2193b1e9c2eb84.th.png 3b21374553e18caa30a2acf4730c9dc0.th.png fd9db6a73bd80d982d9f630d36b38c83.th.png 186855d45394efa17332fdce68cc0c14.th.png 33fc57d3bc33d1cb145fc90bdfe623dd.th.png c841c7987cda85cdaa83a8bc3401823d.th.png 0b587427707c348bcb689aef4a9b3f63.th.png b2ff23dc890319dc132402a93ae1661a.th.png 221486513a33808c0a81e73447820475.th.png e8fbaa1e02bc5b3ff3909ed41da8f1cd.th.png e9ad2e1308baff61acbc183b9f3d7925.th.png 0e068c61756becb5328cac3a77f9c0c3.th.png a5c3e55a1bc9613e5c5923cf8ac225e7.th.png
Category:Movies > WEB-HD
Lang:Hindi
Total Size:5.21 GB
Esub

|| Download This Movie Via Single Resumable Links Size: 5.21 GB ||

Direct-1 Google Drive | Direct-2 | Direct-3 |

Watch Online Click Here

Incoming search terms: