Movies Download

2 States (2014) Hindi 720p BluRay mHD x264 AC3 DD 5.1 -NhaNc3

Poster

2ca83d76dbb3297e31f5526f0d4176ea.jpg
iMDB

Imdb Picture Title: 2 States
Year: 2014
Runtime: 149 minutes
Votes: 20711
Rating: 6.9/10
Language: Hindi
Country: India
All Genres: Comedy, Drama, Romance
Plot Outline: A story about a romantic journey of a culturally opposite couple – Krish Malhotra and Ananya Swaminathan. They meet at the IIM-Ahmedabad College and during the program they fall in love. Complications arise after the program comes to an end and they decide to get married. Krish and Ananya belong to two different states of India. Krish, a North Indian Punjabi boy from Delhi, and Ananya, a Tamilian Brahmin from Chennai. They take a conscious decision; they won’t get married until their parents agree. Everything goes downhill when the parents meet. There is a cultural clash and the parents oppose the wedding. To convert their love story into a love marriage, the couple faces a tough battle in front of them. For it is easy to fight and rebel, but much harder to convince. Will Krish and Ananya’s love for each other sustain the battles? Will they manage to convince their parents and make it to their wedding? Written by UTV Motion Pictures
Director: Abhishek Varman
Writing By: Chetan Bhagat,Abhishek Varman,Hussain Dalal,
Produced By: Chandresh Bhatt,Marijke Desouza,Karan Johar,Pravin Khairnar,Prashant Kunder,Rakesh Madhotra,Apoorva Mehta,Sajid Nadiadwala,
Music: Shankar Mahadevan Loy Mendonsa Ehsaan Noorani Parikshit Sharma Tubby
Cast:
Arjun Kapoor as Krish
Alia Bhatt as Ananya
Amrita Singh as Kavita Malhotra – Krish’s Mother
Revathy as Radha Swaminathan- Ananya’s Mother
Ronit Roy as Vikram Malhotra
Shivkumar Subramaniam as Shiv Swaminathan
Sharang Natarajan as Manjunath Swaminathan
Madhu Anand Chandhock as Duke’s Mom
Hemang Dave as Interviewer
Achint Kaur as
Trailers:
Theatrical Trailer (Non-Subtitled)

Details

Name:2 States (2014) Hindi 720p BluRay mHD x264 AC3 DD 5.1 -NhaNc3
Description:

2 States (2014) Hindi 720p BluRay mHD x264 AC3 DD 5.1 -NhaNc3
d1157b8194a1fdd3aaa0a4e32f613372.jpg
  
Format                                   : Matroska
Format version                           : Version 2
File size                                : 2.93 GiB
Duration                                 : 2 h 29 min
Overall bit rate                         : 2 809 kb/s
Encoded date                             : UTC 2014-06-30 18:37:36
Writing application                      : mkvmerge v4.9.1 (‘Ich will’) built on Jul 11 2011 23:53:15
Writing library                          : libebml v1.2.1 + libmatroska v1.1.1

Video
ID                                       : 1
Format                                   : AVC
Format/Info                              : Advanced Video Codec
Format profile                           : [email protected]
Format settings                          : CABAC / 8 Ref Frames
Format settings, CABAC                   : Yes
Format settings, ReFrames                : 8 frames
Codec ID                                 : V_MPEG4/ISO/AVC
Duration                                 : 2 h 29 min
Bit rate                                 : 2 423 kb/s
Width                                    : 1 280 pixels
Height                                   : 544 pixels
Display aspect ratio                     : 2.35:1
Frame rate mode                          : Constant
Frame rate                               : 23.976 FPS
Color space                              : YUV
Chroma subsampling                       : 4:2:0
Bit depth                                : 8 bits
Scan type                                : Progressive
Bits/(Pixel*Frame)                       : 0.145
Stream size                              : 2.47 GiB (84%)
Writing library                          : x264 core 130 r2273 b3065e6
Language                                 : English
Default                                  : Yes
Forced                                   : No
Color range                              : Limited
Color primaries                          : BT.709
Transfer characteristics                 : BT.709
Matrix coefficients                      : BT.709

Audio
ID                                       : 2
Format                                   : AC-3
Format/Info                              : Audio Coding 3
Codec ID                                 : A_AC3
Duration                                 : 2 h 29 min
Bit rate mode                            : Constant
Bit rate                                 : 384 kb/s
Channel(s)                               : 6 channels
Channel positions                        : Front: L C R, Side: L R, LFE
Sampling rate                            : 48.0 kHz
Frame rate                               : 31.250 FPS (1536 SPF)
Bit depth                                : 16 bits
Compression mode                         : Lossy
Stream size                              : 410 MiB (14%)
Language                                 : English
Service kind                             : Complete Main
Default                                  : Yes
Forced                                   : Yes

Menu
00:00:00.000                             : en:00:00:00.000
00:03:20.409                             : en:00:03:20.409
00:17:20.164                             : en:00:17:20.164
00:21:22.615                             : en:00:21:22.615
00:25:55.095                             : en:00:25:55.095
00:34:50.588                             : en:00:34:50.588
00:41:49.507                             : en:00:41:49.507
00:56:39.688                             : en:00:56:39.688
01:05:22.210                             : en:01:05:22.210
01:10:22.427                             : en:01:10:22.427
01:18:14.189                             : en:01:18:14.189
01:26:56.795                             : en:01:26:56.795
01:34:34.669                             : en:01:34:34.669
01:43:57.857                             : en:01:43:57.857
01:56:29.191                             : en:01:56:29.191
02:02:45.608                             : en:02:02:45.608
02:14:24.139                             : en:02:14:24.139
02:22:45.766                             : en:02:22:45.766
 

738ea2dc1caab28070f299ae1e903445.jpg
Category:Movies > Bollywood
Lang:Hindi
Total Size:2.93 GB

|| Download This Movie Via Single Resumable Links Size: 2.93 GB ||

Direct-1 Google Drive | Direct-2 | Direct-3 |

Watch Online Click Here